Loading...
 * Dettagli Torrent   globale  | Commenti (0) 


- John Wick (2014).720p.H264.ita.eng.Ac3-5.1.sub.NUita-MIRCrew -


Download via torrent:
Categoria bittorrent BDRip
Descrizione
John Wick (2014).720p.H264.ita.eng.Ac3-5.1.sub.NUita-MIRCrew







NO FOUND ONLY ORIGINAL RELEASE

SOTTOTITOLI ITALIANI PER NON UDENTI INCLUSI


My release is always in double track audio italian and Original audio
for select it use VLC or dvd player home
not use wmp

John Wick (2014)

Quality MIRCrew on HD 720p da 1,9 gb










Lingua originale inglese, russo
Paese di produzione Stati Uniti d'America
Anno 2014
Durata 101 min
Rapporto 2,39:1
Genere azione, drammatico, thriller
Regia Chad Stahelski
Soggetto Derek Kolstad
Sceneggiatura Derek Kolstad



   Keanu Reeves: Jonathan "John" Wick
   Michael Nyqvist: Viggo Tarasov
   Alfie Allen: Yosef Tarasov
   Willem Dafoe: Marcus
   Dean Winters: Avi
   Adrianne Palicki: Ms. Perkins
   John Leguizamo: Aurelio
   Daniel Bernhardt: Kirill
   Bridget Moynahan: Helen Wick
   Ian McShane: Winston
   Bridget Regan: Addy
   Lance Reddick: Charon
   Keith Jardine: Kuzma
   Thomas Sadoski: Jimmy
   David Patrick Kelly: Charlie
   Omer Barnea: Gregori
   Toby Leonard Moore: Victor
   Clarke Peters: Harry
   Kevin Nash: Francis
   Scott Tixier: violinista
   Randall Duk Kim: dottore del Continental



John Wick è un ex assassino che da circa cinque anni si è ritirato per vivere con la moglie, che però muore a causa di un male incurabile; come ultimo regalo della donna John riceve una cagnolina, pochi giorni dopo il funerale, a cui si affeziona molto.



An ex-hit-man comes out of retirement to track down the gangsters that killed his dog and took everything from him.

 





General
Unique ID                                : 210957046696238469916907763005324645374 (0x9EB4D96D1CDC335F801DD6148B8DD3FE)
Complete name                            : John Wick (2014).720p.ita.eng.sub.NUIta-MIRCrewJohn Wick (2014).720p.ita.eng.sub.NUIta-MIRCrew.mkv
Format                                   : Matroska
Format version                           : Version 2
File size                                : 1.97 GiB
Duration                                 : 1h 41mn
Overall bit rate                         : 2 774 Kbps
Movie name                               : MIRCrew
Encoded date                             : UTC 2019-09-18T17:28:19Z
Writing application                      : mkvmerge v5.8.0 ('No Sleep / Pillow&#39 built on Sep  2 2012 15:37:04
Writing library                          : Lavf55.12.0

Video
ID                                       : 1
Format                                   : AVC
Format/Info                              : Advanced Video Codec
Format profile                           : [email protected]
Format settings, CABAC                   : Yes
Format settings, ReFrames                : 4 frames
Codec ID                                 : V_MPEG4/ISO/AVC
Duration                                 : 1h 41mn
Bit rate                                 : 1 900 Kbps
Width                                    : 1 280 pixels
Height                                   : 528 pixels
Display aspect ratio                     : 2.40:1
Frame rate                               : 24.000 fps
Color space                              : YUV
Chroma subsampling                       : 4:2:0
Bit depth                                : 8 bits
Scan type                                : Progressive
Bits/(Pixel*Frame)                       : 0.117
Stream size                              : 1.29 GiB (66%)
Title                                    : MIRCRew
Writing library                          : x264 core 142 r2479 dd79a61
Encoding settings                        : cabac=1 / ref=1 / deblock=1:0:0 / analyse=0x1:0x111 / me=hex / subme=2 / psy=1 / psy_rd=1.00:0.00 / mixed_ref=0 / me_range=16 / chroma_me=1 / trellis=0 / 8x8dct=0 / cqm=0 / deadzone=21,11 / fast_pskip=1 / chroma_qp_offset=0 / threads=9 / lookahead_threads=3 / sliced_threads=0 / nr=0 / decimate=1 / interlaced=0 / bluray_compat=0 / constrained_intra=0 / bframes=3 / b_pyramid=2 / b_adapt=1 / b_bias=0 / direct=1 / weightb=1 / open_gop=0 / weightp=1 / keyint=240 / keyint_min=24 / scenecut=40 / intra_refresh=0 / rc_lookahead=10 / rc=abr / mbtree=1 / bitrate=1900 / ratetol=1.0 / qcomp=0.60 / qpmin=0 / qpmax=69 / qpstep=4 / vbv_maxrate=50000 / vbv_bufsize=62500 / nal_hrd=none / filler=0 / ip_ratio=1.40 / aq=1:1.00
Language                                 : Italian
Default                                  : Yes
Forced                                   : No
Color primaries                          : BT.709-5, BT.1361, IEC 61966-2-4, SMPTE RP177
Transfer characteristics                 : BT.709-5, BT.1361
Matrix coefficients                      : BT.709-5, BT.1361, IEC 61966-2-4 709, SMPTE RP177

Audio #1
ID                                       : 2
Format                                   : AC-3
Format/Info                              : Audio Coding 3
Mode extension                           : CM (complete main)
Codec ID                                 : A_AC3
Duration                                 : 1h 41mn
Bit rate mode                            : Constant
Bit rate                                 : 448 Kbps
Channel(s)                               : 6 channels
Channel positions                        : Front: L C R, Side: L R, LFE
Sampling rate                            : 48.0 KHz
Bit depth                                : 16 bits
Compression mode                         : Lossy
Delay relative to video                  : -5ms
Stream size                              : 325 MiB (16%)
Title                                    : Ita Ac3 5.1
Language                                 : Italian
Default                                  : Yes
Forced                                   : No

Audio #2
ID                                       : 3
Format                                   : AC-3
Format/Info                              : Audio Coding 3
Mode extension                           : CM (complete main)
Codec ID                                 : A_AC3
Duration                                 : 1h 41mn
Bit rate mode                            : Constant
Bit rate                                 : 448 Kbps
Channel(s)                               : 6 channels
Channel positions                        : Front: L C R, Side: L R, LFE
Sampling rate                            : 48.0 KHz
Bit depth                                : 16 bits
Compression mode                         : Lossy
Delay relative to video                  : -5ms
Stream size                              : 325 MiB (16%)
Title                                    : Eng Ac3 5.1
Language                                 : English
Default                                  : No
Forced                                   : No

Menu
00:00:00.000                             : 01)00:00:00:000
00:10:54.416                             : 02)00:10:54:291
00:20:08.000                             : 03)00:20:07:875
00:26:38.791                             : 04)00:26:38:666
00:35:25.500                             : 05)00:35:25:375
00:43:23.041                             : 06)00:43:22:916
00:55:14.458                             : 07)00:55:14:333
01:01:26.000                             : 001:01:25:875
01:06:25.208                             : 09)01:06:25:000
01:17:28.791                             : 10)01:17:28:666
01:25:01.166                             : 11)01:25:01:000
01:29:02.541                             : 12)01:29:02:375




Info: Per scaricare devi usare un client come uTorrent o Transmission
AnnounceURL
udp://tracker.coppersurfer.tk:6969/announce
Hash 99711e05834f5b16a1a746689fb51606413ef328
Peers seeds: 37 , leech: 25
Size 1.97 GB
Completato 144x
Aggiunto 22.09.19 - 10:09:36
Uploader   robbyrs
Votazione (Voti: 1)


Condividi questo bittorrent:


html/blog:


bbcode/forum:




Aggiungi Commento